10
ноя
2018

VA - Сборник Русских клипов 2000 - 2016 от ALEXnROCK часть 3 [2018, Поп, DVDRip, 1080p]

VA - Сборник Русских клипов 2000 - 2016 от ALEXnROCK часть 3


Формат: DVDRip, MKV, H.264, PCM
Песня: Сборник Русских клипов 2000 - 2016 от ALEXnROCK часть 3
Жанр: Поп
Продолжительность: 02:53:39
Год выпуска: 2018
Видео: 1920x1080 (16x9) 1440x1080 (4x3) 30 fps, AVC (High@L4) 5300 kbps, 0.085 bit/pixel
Аудио: PCM 2.0, 48KHz, 1536kbps

Доп. информация:
В сборник вошли самые достойные и хитовые поп клипы от музыкантов с постсоветского пространства с 2000 по 2016 год. Ремастеринг видео и звука. Это 3я часть сборника. Да пребудет с нами качественная музыка!. Все лучшее для вас. ALEXnROCK

Смотреть онлайн

Треклист

000 Вступление
122 Reflex - Танцы
123 Согдиана - Синее небо
124 Дима Билан - Ты должна рядом быть
125 Вера Брежнева - Любовь спасет мир
126 Анжелика Варум - Сумасшедшая
127 Hi-Fi – Беда
128 А.Маршал и Н.Трубач - Я живу в раю
129 Ассорти - Красивая любовь
130 Лада Дэнс - Контрольный поцелуй
131 Леонид Агутин - Где-то далеко
132 Банд'Эрос - Бум-синьорита
133 ВИА Гра - Л.М.Л.
134 Иракли - Вова чума
135 Фабрика - Зажигают огоньки
136 Любовные истории - Школа
137 Ирина Салтыкова - Бегу за тобой
138 А.Лорак и Т.Родригез - Увлечение
139 Валерия - Радуга
140 Леонид Агутин - По дороге на юг
141 Иракли - Я с тобой
142 Reflex - Жесткое диско
143 23.45 - Друг без друга
144 Варвара - Летала да пела
145 Mr. Credo - Чудная долина
146 Мираж - Тысяча звезд
147 Корни - Хочешь, я тебе спою
148 ВИА Гра и ТНМК - Нет ничего хуже...
149 Чили - Лето
150 Евгения Отрадная - Я тебя очень
151 Юрий Шатунов - Запиши мой голос
152 Игра слов - На банане
153 Бьянка - Про любовь
154 Город 312 - Вне зоны доступа
155 Инь Ян - Пофиг
156 Тутси - Сама по себе
157 Эд Шульжевский - Странная жизнь
158 Потап и Настя Каменских - На раЕне
159 Полина Гагарина - Шагай
160 Доминик Джокер - Если ты со мной
161 Пропаганда - Знаешь (DJ Pomeha Remix)
162 Леонид Агутин - Пора домой
163 Митя Фомин - Огни большого города
164 Валерия - Город детства
165 Dino MC47 (Рома Пан. Звонкий и Аделина) - Жаркие страны
166 Винтаж и Е.Корикова - Плохая девочка
167 Ф.Киркоров и С.Рувас - Как сумашедший я


Mediainfo
Общее
Уникальный идентификатор : 192802545156642376280958742327799661145 (0x910C6B64D1A6384DA05E4440BA014259)
Полное имя : Русские клипы от ALEXnROCK Часть 3 mкv00 Вступление Full HD.mkv
Формат : Matroska
Версия формата : Version 4 / Version 2
Размер файла : 56,3 Мбайт
Продолжительность : 1 м. 8 с.
Общий поток : 6886 Кбит/сек
Дата кодирования : UTC 2018-11-09 20:06:46
Программа кодирования : mkvmerge v9.8.0 ('Kuglblids') 64bit
Библиотека кодирования : libebml v1.3.4 + libmatroska v1.4.5

Видео
Идентификатор : 1
Формат : AVC
Формат/Информация : Advanced Video Codec
Профиль формата : High@L4
Настройки формата : CABAC / 4 Ref Frames
Параметр CABAC формата : Да
Параметр RefFrames формата : 4 кадра
Идентификатор кодека : V_MPEG4/ISO/AVC
Продолжительность : 1 м. 8 с.
Битрейт : 5300 Кбит/сек
Ширина : 1920 пикселей
Высота : 1080 пикселей
Соотношение сторон : 16:9
Режим частоты кадров : Постоянный
Частота кадров : 30,000 кадров/сек
Цветовое пространство : YUV
Субдискретизация насыщенности : 4:2:0
Битовая глубина : 8 бит
Тип развёртки : MBAFF
Метод сохранения типа развёртки : Чередующиеся поля
Порядок развёртки : Верхнее поле первое
Бит/(Пиксели*Кадры) : 0.085
Размер потока : 43,8 Мбайт (78%)
Библиотека кодирования : x264 core 146 r2538 121396c
Настройки программы : cabac=1 / ref=3 / deblock=1:-1:-1 / analyse=0x3:0x113 / me=hex / subme=7 / psy=1 / psy_rd=1.00:0.15 / mixed_ref=1 / me_range=16 / chroma_me=1 / trellis=1 / 8x8dct=1 / cqm=0 / deadzone=21,11 / fast_pskip=1 / chroma_qp_offset=-3 / threads=12 / lookahead_threads=2 / sliced_threads=0 / nr=0 / decimate=1 / interlaced=tff / bluray_compat=0 / constrained_intra=0 / bframes=3 / b_pyramid=2 / b_adapt=1 / b_bias=0 / direct=3 / weightb=1 / open_gop=0 / weightp=0 / keyint=250 / keyint_min=25 / scenecut=40 / intra_refresh=0 / rc_lookahead=40 / rc=2pass / mbtree=1 / bitrate=5300 / ratetol=1.0 / qcomp=0.60 / qpmin=0 / qpmax=69 / qpstep=4 / cplxblur=20.0 / qblur=0.5 / ip_ratio=1.40 / aq=1:1.00
Default : Да
Forced : Нет

Аудио
Идентификатор : 2
Формат : PCM
Идентификатор кодека : A_PCM/INT/LIT
Продолжительность : 1 м. 8 с.
Вид битрейта : Постоянный
Битрейт : 1536 Кбит/сек
Каналы : 2 канала
Частота : 48,0 КГц
Частота кадров : 32,003 кадра/сек (1500 SPF)
Битовая глубина : 16 бит
Размер потока : 12,6 Мбайт (22%)
Default : Да
Forced : Нет

Общее
Уникальный идентификатор : 189500108358647719663030793830976273804 (0x8E9064B04EFB572EB9DF7FBF9AF93D8C)
Полное имя : D:Сборник русских клиповНовая папкаРусские клипы от ALEXnROCK Часть 3 mкv122 Reflex - Танцы Full HD.mkv
Формат : Matroska
Версия формата : Version 4 / Version 2
Размер файла : 194 Мбайт
Продолжительность : 3 м. 58 с.
Общий поток : 6829 Кбит/сек
Дата кодирования : UTC 2018-11-05 13:18:48
Программа кодирования : mkvmerge v9.8.0 ('Kuglblids') 64bit
Библиотека кодирования : libebml v1.3.4 + libmatroska v1.4.5

Видео
Идентификатор : 1
Формат : AVC
Формат/Информация : Advanced Video Codec
Профиль формата : High@L4
Настройки формата : CABAC / 4 Ref Frames
Параметр CABAC формата : Да
Параметр RefFrames формата : 4 кадра
Параметр GOP формата : M=1, N=6
Идентификатор кодека : V_MPEG4/ISO/AVC
Продолжительность : 3 м. 58 с.
Битрейт : 5300 Кбит/сек
Ширина : 1920 пикселей
Высота : 1080 пикселей
Соотношение сторон : 16:9
Режим частоты кадров : Постоянный
Частота кадров : 30,000 кадров/сек
Цветовое пространство : YUV
Субдискретизация насыщенности : 4:2:0
Битовая глубина : 8 бит
Тип развёртки : Прогрессивная
Бит/(Пиксели*Кадры) : 0.085
Размер потока : 150 Мбайт (78%)
Библиотека кодирования : x264 core 146 r2538 121396c
Настройки программы : cabac=1 / ref=3 / deblock=1:-1:-1 / analyse=0x3:0x113 / me=hex / subme=7 / psy=1 / psy_rd=1.00:0.15 / mixed_ref=1 / me_range=16 / chroma_me=1 / trellis=1 / 8x8dct=1 / cqm=0 / deadzone=21,11 / fast_pskip=1 / chroma_qp_offset=-3 / threads=12 / lookahead_threads=2 / sliced_threads=0 / nr=0 / decimate=1 / interlaced=0 / bluray_compat=0 / constrained_intra=0 / bframes=3 / b_pyramid=2 / b_adapt=1 / b_bias=0 / direct=3 / weightb=1 / open_gop=0 / weightp=2 / keyint=250 / keyint_min=25 / scenecut=40 / intra_refresh=0 / rc_lookahead=40 / rc=2pass / mbtree=1 / bitrate=5300 / ratetol=1.0 / qcomp=0.60 / qpmin=0 / qpmax=69 / qpstep=4 / cplxblur=20.0 / qblur=0.5 / ip_ratio=1.40 / aq=1:1.00
Default : Да
Forced : Нет

Аудио
Идентификатор : 2
Формат : PCM
Идентификатор кодека : A_PCM/INT/LIT
Продолжительность : 3 м. 57 с.
Вид битрейта : Постоянный
Битрейт : 1536 Кбит/сек
Каналы : 2 канала
Частота : 48,0 КГц
Частота кадров : 32,002 кадра/сек (1500 SPF)
Битовая глубина : 16 бит
Размер потока : 43,5 Мбайт (22%)
Default : Да
Forced : Нет

Общее
Уникальный идентификатор : 236098395841819693005208984202060729056 (0xB19EE5A43D779DA197F2E9812E938AE0)
Полное имя : D:Сборник русских клиповНовая папкаРусские клипы от ALEXnROCK Часть 3 mкv123 Согдиана - Синее небо Full HD.mkv
Формат : Matroska
Версия формата : Version 4 / Version 2
Размер файла : 198 Мбайт
Продолжительность : 4 м. 3 с.
Общий поток : 6816 Кбит/сек
Дата кодирования : UTC 2018-11-04 12:08:13
Программа кодирования : mkvmerge v9.8.0 ('Kuglblids') 64bit
Библиотека кодирования : libebml v1.3.4 + libmatroska v1.4.5

Видео
Идентификатор : 1
Формат : AVC
Формат/Информация : Advanced Video Codec
Профиль формата : High@L4
Настройки формата : CABAC / 4 Ref Frames
Параметр CABAC формата : Да
Параметр RefFrames формата : 4 кадра
Идентификатор кодека : V_MPEG4/ISO/AVC
Продолжительность : 4 м. 3 с.
Битрейт : 5300 Кбит/сек
Ширина : 1920 пикселей
Высота : 872 пикселя
Соотношение сторон : 2,2:1
Режим частоты кадров : Постоянный
Частота кадров : 30,000 кадров/сек
Цветовое пространство : YUV
Субдискретизация насыщенности : 4:2:0
Битовая глубина : 8 бит
Тип развёртки : Прогрессивная
Бит/(Пиксели*Кадры) : 0.106
Размер потока : 154 Мбайт (78%)
Библиотека кодирования : x264 core 146 r2538 121396c
Настройки программы : cabac=1 / ref=3 / deblock=1:-1:-1 / analyse=0x3:0x113 / me=hex / subme=7 / psy=1 / psy_rd=1.00:0.15 / mixed_ref=1 / me_range=16 / chroma_me=1 / trellis=1 / 8x8dct=1 / cqm=0 / deadzone=21,11 / fast_pskip=1 / chroma_qp_offset=-3 / threads=12 / lookahead_threads=2 / sliced_threads=0 / nr=0 / decimate=1 / interlaced=0 / bluray_compat=0 / constrained_intra=0 / bframes=3 / b_pyramid=2 / b_adapt=1 / b_bias=0 / direct=3 / weightb=1 / open_gop=0 / weightp=2 / keyint=250 / keyint_min=25 / scenecut=40 / intra_refresh=0 / rc_lookahead=40 / rc=2pass / mbtree=1 / bitrate=5300 / ratetol=1.0 / qcomp=0.60 / qpmin=0 / qpmax=69 / qpstep=4 / cplxblur=20.0 / qblur=0.5 / ip_ratio=1.40 / aq=1:1.00
Default : Да
Forced : Нет

Аудио
Идентификатор : 2
Формат : PCM
Идентификатор кодека : A_PCM/INT/LIT
Продолжительность : 3 м. 58 с.
Вид битрейта : Постоянный
Битрейт : 1536 Кбит/сек
Каналы : 2 канала
Частота : 48,0 КГц
Частота кадров : 32,003 кадра/сек (1500 SPF)
Битовая глубина : 16 бит
Размер потока : 43,6 Мбайт (22%)
Default : Да
Forced : Нет

Общее
Уникальный идентификатор : 217649872645675293833202216563442161251 (0xA3BDD738E77226D6910243C8242F9663)
Полное имя : D:Сборник русских клиповНовая папкаРусские клипы от ALEXnROCK Часть 3 mкv124 Дима Билан - Ты должна рядом быть Full HD.mkv
Формат : Matroska
Версия формата : Version 4 / Version 2
Размер файла : 194 Мбайт
Продолжительность : 3 м. 58 с.
Общий поток : 6840 Кбит/сек
Дата кодирования : UTC 2018-11-04 21:54:01
Программа кодирования : mkvmerge v9.8.0 ('Kuglblids') 64bit
Библиотека кодирования : libebml v1.3.4 + libmatroska v1.4.5

Видео
Идентификатор : 1
Формат : AVC
Формат/Информация : Advanced Video Codec
Профиль формата : High@L4
Настройки формата : CABAC / 4 Ref Frames
Параметр CABAC формата : Да
Параметр RefFrames формата : 4 кадра
Параметр GOP формата : M=1, N=6
Идентификатор кодека : V_MPEG4/ISO/AVC
Продолжительность : 3 м. 58 с.
Битрейт : 5300 Кбит/сек
Ширина : 1920 пикселей
Высота : 1040 пикселей
Соотношение сторон : 1,85:1
Режим частоты кадров : Постоянный
Частота кадров : 30,000 кадров/сек
Цветовое пространство : YUV
Субдискретизация насыщенности : 4:2:0
Битовая глубина : 8 бит
Тип развёртки : Прогрессивная
Бит/(Пиксели*Кадры) : 0.088
Размер потока : 151 Мбайт (78%)
Библиотека кодирования : x264 core 146 r2538 121396c
Настройки программы : cabac=1 / ref=3 / deblock=1:-1:-1 / analyse=0x3:0x113 / me=hex / subme=7 / psy=1 / psy_rd=1.00:0.15 / mixed_ref=1 / me_range=16 / chroma_me=1 / trellis=1 / 8x8dct=1 / cqm=0 / deadzone=21,11 / fast_pskip=1 / chroma_qp_offset=-3 / threads=12 / lookahead_threads=2 / sliced_threads=0 / nr=0 / decimate=1 / interlaced=0 / bluray_compat=0 / constrained_intra=0 / bframes=3 / b_pyramid=2 / b_adapt=1 / b_bias=0 / direct=3 / weightb=1 / open_gop=0 / weightp=2 / keyint=250 / keyint_min=25 / scenecut=40 / intra_refresh=0 / rc_lookahead=40 / rc=2pass / mbtree=1 / bitrate=5300 / ratetol=1.0 / qcomp=0.60 / qpmin=0 / qpmax=69 / qpstep=4 / cplxblur=20.0 / qblur=0.5 / ip_ratio=1.40 / aq=1:1.00
Default : Да
Forced : Нет

Аудио
Идентификатор : 2
Формат : PCM
Идентификатор кодека : A_PCM/INT/LIT
Продолжительность : 3 м. 57 с.
Вид битрейта : Постоянный
Битрейт : 1536 Кбит/сек
Каналы : 2 канала
Частота : 48,0 КГц
Частота кадров : 32,004 кадра/сек (1500 SPF)
Битовая глубина : 16 бит
Размер потока : 43,5 Мбайт (22%)
Default : Да
Forced : Нет

Общее
Уникальный идентификатор : 194260297392599843264749106956069553957 (0x92252C20CB48102E82BDE2FAAE4CC725)
Полное имя : D:Сборник русских клиповНовая папкаРусские клипы от ALEXnROCK Часть 3 mкv125 Вера Брежнева - Любовь спасет мир Full HD.mkv
Формат : Matroska
Версия формата : Version 4 / Version 2
Размер файла : 124 Мбайт
Продолжительность : 3 м. 32 с.
Общий поток : 4921 Кбит/сек
Дата кодирования : UTC 2017-06-01 21:41:33
Программа кодирования : mkvmerge v9.8.0 ('Kuglblids') 64bit
Библиотека кодирования : libebml v1.3.4 + libmatroska v1.4.5

Видео
Идентификатор : 1
Формат : AVC
Формат/Информация : Advanced Video Codec
Профиль формата : High@L4
Настройки формата : CABAC / 4 Ref Frames
Параметр CABAC формата : Да
Параметр RefFrames формата : 4 кадра
Идентификатор кодека : V_MPEG4/ISO/AVC
Продолжительность : 3 м. 32 с.
Битрейт : 3400 Кбит/сек
Ширина : 1280 пикселей
Высота : 712 пикселей
Соотношение сторон : 16:9
Режим частоты кадров : Постоянный
Частота кадров : 25,000 кадров/сек
Цветовое пространство : YUV
Субдискретизация насыщенности : 4:2:0
Битовая глубина : 8 бит
Тип развёртки : Прогрессивная
Бит/(Пиксели*Кадры) : 0.149
Размер потока : 85,9 Мбайт (69%)
Библиотека кодирования : x264 core 146 r2538 121396c
Настройки программы : cabac=1 / ref=3 / deblock=1:-1:-1 / analyse=0x3:0x113 / me=hex / subme=7 / psy=1 / psy_rd=1.00:0.20 / mixed_ref=1 / me_range=16 / chroma_me=1 / trellis=1 / 8x8dct=1 / cqm=0 / deadzone=21,11 / fast_pskip=1 / chroma_qp_offset=-3 / threads=12 / lookahead_threads=2 / sliced_threads=0 / nr=0 / decimate=0 / interlaced=0 / bluray_compat=0 / constrained_intra=0 / bframes=3 / b_pyramid=2 / b_adapt=1 / b_bias=0 / direct=3 / weightb=1 / open_gop=0 / weightp=2 / keyint=250 / keyint_min=25 / scenecut=40 / intra_refresh=0 / rc_lookahead=40 / rc=2pass / mbtree=1 / bitrate=3400 / ratetol=1.0 / qcomp=0.60 / qpmin=0 / qpmax=69 / qpstep=4 / cplxblur=20.0 / qblur=0.5 / vbv_maxrate=14000 / vbv_bufsize=14000 / nal_hrd=none / filler=0 / ip_ratio=1.40 / aq=1:1.00
Default : Да
Forced : Нет

Аудио
Идентификатор : 2
Формат : PCM
Идентификатор кодека : A_PCM/INT/LIT
Продолжительность : 3 м. 30 с.
Вид битрейта : Постоянный
Битрейт : 1536 Кбит/сек
Каналы : 2 канала
Частота : 48,0 КГц
Частота кадров : 32,002 кадра/сек (1500 SPF)
Битовая глубина : 16 бит
Размер потока : 38,5 Мбайт (31%)
Default : Да
Forced : Нет

Общее
Уникальный идентификатор : 196894414222453559609895805955055506731 (0x94207C1D623EB31DB95DEA860407552B)
Полное имя : D:Сборник русских клиповНовая папкаРусские клипы от ALEXnROCK Часть 3 mкv126 Анжелика Варум - Сумасшедшая Full HD.mkv
Формат : Matroska
Версия формата : Version 4 / Version 2
Размер файла : 218 Мбайт
Продолжительность : 4 м. 27 с.
Общий поток : 6832 Кбит/сек
Дата кодирования : UTC 2018-11-04 15:06:23
Программа кодирования : mkvmerge v9.8.0 ('Kuglblids') 64bit
Библиотека кодирования : libebml v1.3.4 + libmatroska v1.4.5

Видео
Идентификатор : 1
Формат : AVC
Формат/Информация : Advanced Video Codec
Профиль формата : High@L4
Настройки формата : CABAC / 4 Ref Frames
Параметр CABAC формата : Да
Параметр RefFrames формата : 4 кадра
Идентификатор кодека : V_MPEG4/ISO/AVC
Продолжительность : 4 м. 27 с.
Битрейт : 5300 Кбит/сек
Ширина : 1920 пикселей
Высота : 1080 пикселей
Соотношение сторон : 16:9
Режим частоты кадров : Постоянный
Частота кадров : 30,000 кадров/сек
Цветовое пространство : YUV
Субдискретизация насыщенности : 4:2:0
Битовая глубина : 8 бит
Тип развёртки : Прогрессивная
Бит/(Пиксели*Кадры) : 0.085
Размер потока : 169 Мбайт (78%)
Библиотека кодирования : x264 core 146 r2538 121396c
Настройки программы : cabac=1 / ref=3 / deblock=1:-1:-1 / analyse=0x3:0x113 / me=hex / subme=7 / psy=1 / psy_rd=1.00:0.15 / mixed_ref=1 / me_range=16 / chroma_me=1 / trellis=1 / 8x8dct=1 / cqm=0 / deadzone=21,11 / fast_pskip=1 / chroma_qp_offset=-3 / threads=12 / lookahead_threads=2 / sliced_threads=0 / nr=0 / decimate=1 / interlaced=0 / bluray_compat=0 / constrained_intra=0 / bframes=3 / b_pyramid=2 / b_adapt=1 / b_bias=0 / direct=3 / weightb=1 / open_gop=0 / weightp=2 / keyint=250 / keyint_min=25 / scenecut=40 / intra_refresh=0 / rc_lookahead=40 / rc=2pass / mbtree=1 / bitrate=5300 / ratetol=1.0 / qcomp=0.60 / qpmin=0 / qpmax=69 / qpstep=4 / cplxblur=20.0 / qblur=0.5 / ip_ratio=1.40 / aq=1:1.00
Default : Да
Forced : Нет

Аудио
Идентификатор : 2
Формат : PCM
Идентификатор кодека : A_PCM/INT/LIT
Продолжительность : 4 м. 26 с.
Вид битрейта : Постоянный
Битрейт : 1536 Кбит/сек
Каналы : 2 канала
Частота : 48,0 КГц
Частота кадров : 32,000 кадра/сек (1500 SPF)
Битовая глубина : 16 бит
Размер потока : 48,8 Мбайт (22%)
Default : Да
Forced : Нет

Общее
Уникальный идентификатор : 203604539369541335050479275892590972295 (0x992CCED3BF223D9DAC5F935BF9330D87)
Полное имя : D:Сборник русских клиповНовая папкаРусские клипы от ALEXnROCK Часть 3 mкv127 Hi-Fi – Беда Full HD.mkv
Формат : Matroska
Версия формата : Version 4 / Version 2
Размер файла : 133 Мбайт
Продолжительность : 2 м. 42 с.
Общий поток : 6837 Кбит/сек
Дата кодирования : UTC 2018-11-04 18:43:39
Программа кодирования : mkvmerge v9.8.0 ('Kuglblids') 64bit
Библиотека кодирования : libebml v1.3.4 + libmatroska v1.4.5

Видео
Идентификатор : 1
Формат : AVC
Формат/Информация : Advanced Video Codec
Профиль формата : High@L4
Настройки формата : CABAC / 4 Ref Frames
Параметр CABAC формата : Да
Параметр RefFrames формата : 4 кадра
Параметр GOP формата : M=1, N=6
Идентификатор кодека : V_MPEG4/ISO/AVC
Продолжительность : 2 м. 42 с.
Битрейт : 5300 Кбит/сек
Ширина : 1920 пикселей
Высота : 1080 пикселей
Соотношение сторон : 16:9
Режим частоты кадров : Постоянный
Частота кадров : 30,000 кадров/сек
Цветовое пространство : YUV
Субдискретизация насыщенности : 4:2:0
Битовая глубина : 8 бит
Тип развёртки : Прогрессивная
Бит/(Пиксели*Кадры) : 0.085
Размер потока : 103 Мбайт (78%)
Библиотека кодирования : x264 core 146 r2538 121396c
Настройки программы : cabac=1 / ref=3 / deblock=1:-1:-1 / analyse=0x3:0x113 / me=hex / subme=7 / psy=1 / psy_rd=1.00:0.15 / mixed_ref=1 / me_range=16 / chroma_me=1 / trellis=1 / 8x8dct=1 / cqm=0 / deadzone=21,11 / fast_pskip=1 / chroma_qp_offset=-3 / threads=12 / lookahead_threads=2 / sliced_threads=0 / nr=0 / decimate=1 / interlaced=0 / bluray_compat=0 / constrained_intra=0 / bframes=3 / b_pyramid=2 / b_adapt=1 / b_bias=0 / direct=3 / weightb=1 / open_gop=0 / weightp=2 / keyint=250 / keyint_min=25 / scenecut=40 / intra_refresh=0 / rc_lookahead=40 / rc=2pass / mbtree=1 / bitrate=5300 / ratetol=1.0 / qcomp=0.60 / qpmin=0 / qpmax=69 / qpstep=4 / cplxblur=20.0 / qblur=0.5 / ip_ratio=1.40 / aq=1:1.00
Default : Да
Forced : Нет

Аудио
Идентификатор : 2
Формат : PCM
Идентификатор кодека : A_PCM/INT/LIT
Продолжительность : 2 м. 42 с.
Вид битрейта : Постоянный
Битрейт : 1536 Кбит/сек
Каналы : 2 канала
Частота : 48,0 КГц
Частота кадров : 32,001 кадра/сек (1500 SPF)
Битовая глубина : 16 бит
Размер потока : 29,7 Мбайт (22%)
Default : Да
Forced : Нет

Общее
Уникальный идентификатор : 208772225963217649181120825561774293169 (0x9D10117288997BB5AEC2F6707FAC00B1)
Полное имя : D:Сборник русских клиповНовая папкаРусские клипы от ALEXnROCK Часть 3 mкv128 Александр Маршал и Николай Трубач - Я живу в раю Full HD.mkv
Формат : Matroska
Версия формата : Version 4 / Version 2
Размер файла : 222 Мбайт
Продолжительность : 4 м. 32 с.
Общий поток : 6834 Кбит/сек
Дата кодирования : UTC 2018-11-04 15:22:30
Программа кодирования : mkvmerge v9.8.0 ('Kuglblids') 64bit
Библиотека кодирования : libebml v1.3.4 + libmatroska v1.4.5

Видео
Идентификатор : 1
Формат : AVC
Формат/Информация : Advanced Video Codec
Профиль формата : High@L4
Настройки формата : CABAC / 4 Ref Frames
Параметр CABAC формата : Да
Параметр RefFrames формата : 4 кадра
Идентификатор кодека : V_MPEG4/ISO/AVC
Продолжительность : 4 м. 32 с.
Битрейт : 5300 Кбит/сек
Ширина : 1440 пикселей
Высота : 1080 пикселей
Соотношение сторон : 4:3
Режим частоты кадров : Постоянный
Частота кадров : 30,000 кадров/сек
Цветовое пространство : YUV
Субдискретизация насыщенности : 4:2:0
Битовая глубина : 8 бит
Тип развёртки : Прогрессивная
Бит/(Пиксели*Кадры) : 0.114
Размер потока : 172 Мбайт (78%)
Библиотека кодирования : x264 core 146 r2538 121396c
Настройки программы : cabac=1 / ref=3 / deblock=1:-1:-1 / analyse=0x3:0x113 / me=hex / subme=7 / psy=1 / psy_rd=1.00:0.15 / mixed_ref=1 / me_range=16 / chroma_me=1 / trellis=1 / 8x8dct=1 / cqm=0 / deadzone=21,11 / fast_pskip=1 / chroma_qp_offset=-3 / threads=12 / lookahead_threads=2 / sliced_threads=0 / nr=0 / decimate=1 / interlaced=0 / bluray_compat=0 / constrained_intra=0 / bframes=3 / b_pyramid=2 / b_adapt=1 / b_bias=0 / direct=3 / weightb=1 / open_gop=0 / weightp=2 / keyint=250 / keyint_min=25 / scenecut=40 / intra_refresh=0 / rc_lookahead=40 / rc=2pass / mbtree=1 / bitrate=5300 / ratetol=1.0 / qcomp=0.60 / qpmin=0 / qpmax=69 / qpstep=4 / cplxblur=20.0 / qblur=0.5 / ip_ratio=1.40 / aq=1:1.00
Default : Да
Forced : Нет

Аудио
Идентификатор : 2
Формат : PCM
Идентификатор кодека : A_PCM/INT/LIT
Продолжительность : 4 м. 31 с.
Вид битрейта : Постоянный
Битрейт : 1536 Кбит/сек
Каналы : 2 канала
Частота : 48,0 КГц
Частота кадров : 32,003 кадра/сек (1500 SPF)
Битовая глубина : 16 бит
Размер потока : 49,7 Мбайт (22%)
Default : Да
Forced : Нет

Общее
Уникальный идентификатор : 213816058468489381077150921543204541484 (0xA0DB7996F2A706D08FC21260E1DD142C)
Полное имя : D:Сборник русских клиповНовая папкаРусские клипы от ALEXnROCK Часть 3 mкv129 Ассорти - Красивая любовь Full HD.mkv
Формат : Matroska
Версия формата : Version 4 / Version 2
Размер файла : 126 Мбайт
Продолжительность : 3 м. 29 с.
Общий поток : 5043 Кбит/сек
Дата кодирования : UTC 2018-11-05 14:04:41
Программа кодирования : mkvmerge v9.8.0 ('Kuglblids') 64bit
Библиотека кодирования : libebml v1.3.4 + libmatroska v1.4.5

Видео
Идентификатор : 1
Формат : AVC
Формат/Информация : Advanced Video Codec
Профиль формата : High@L4
Настройки формата : CABAC / 8 Ref Frames
Параметр CABAC формата : Да
Параметр RefFrames формата : 8 кадров
Идентификатор кодека : V_MPEG4/ISO/AVC
Продолжительность : 3 м. 29 с.
Битрейт : 3500 Кбит/сек
Ширина : 1280 пикселей
Высота : 720 пикселей
Соотношение сторон : 16:9
Режим частоты кадров : Постоянный
Частота кадров : 25,000 кадров/сек
Цветовое пространство : YUV
Субдискретизация насыщенности : 4:2:0
Битовая глубина : 8 бит
Тип развёртки : Прогрессивная
Бит/(Пиксели*Кадры) : 0.152
Размер потока : 87,6 Мбайт (70%)
Библиотека кодирования : x264 core 146 r2538 121396c
Настройки программы : cabac=1 / ref=8 / deblock=1:-1:-1 / analyse=0x3:0x113 / me=umh / subme=7 / psy=1 / psy_rd=1.00:0.20 / mixed_ref=1 / me_range=16 / chroma_me=1 / trellis=2 / 8x8dct=1 / cqm=0 / deadzone=21,11 / fast_pskip=0 / chroma_qp_offset=-3 / threads=12 / lookahead_threads=2 / sliced_threads=0 / nr=0 / decimate=0 / interlaced=0 / bluray_compat=0 / constrained_intra=0 / bframes=3 / b_pyramid=2 / b_adapt=2 / b_bias=0 / direct=3 / weightb=1 / open_gop=0 / weightp=2 / keyint=250 / keyint_min=25 / scenecut=40 / intra_refresh=0 / rc_lookahead=50 / rc=2pass / mbtree=1 / bitrate=3500 / ratetol=1.0 / qcomp=0.60 / qpmin=0 / qpmax=69 / qpstep=4 / cplxblur=20.0 / qblur=0.5 / vbv_maxrate=14000 / vbv_bufsize=14000 / nal_hrd=none / filler=0 / ip_ratio=1.40 / aq=1:1.00
Default : Да
Forced : Нет

Аудио
Идентификатор : 2
Формат : PCM
Идентификатор кодека : A_PCM/INT/LIT
Продолжительность : 3 м. 29 с.
Вид битрейта : Постоянный
Битрейт : 1536 Кбит/сек
Каналы : 2 канала
Частота : 48,0 КГц
Частота кадров : 32,003 кадра/сек (1500 SPF)
Битовая глубина : 16 бит
Размер потока : 38,3 Мбайт (30%)
Default : Да
Forced : Нет

Общее
Уникальный идентификатор : 180261104751805735081885230234099767489 (0x879D06A4549427DAB22D9BAB30F7D8C1)
Полное имя : D:Сборник русских клиповНовая папкаРусские клипы от ALEXnROCK Часть 3 mкv130 Лада Дэнс - Контрольный поцелуй Full HD.mkv
Формат : Matroska
Версия формата : Version 2
Размер файла : 178 Мбайт
Продолжительность : 3 м. 38 с.
Общий поток : 6850 Кбит/сек
Дата кодирования : UTC 2018-11-04 12:56:33
Программа кодирования : mkvmerge v7.8.0 ('River Man') 32bit built on Apr 3 2015 12:11:22
Библиотека кодирования : libebml v1.3.1 + libmatroska v1.4.2

Видео
Идентификатор : 1
Формат : AVC
Формат/Информация : Advanced Video Codec
Профиль формата : High@L4
Настройки формата : CABAC / 4 Ref Frames
Параметр CABAC формата : Да
Параметр RefFrames формата : 4 кадра
Идентификатор кодека : V_MPEG4/ISO/AVC
Продолжительность : 3 м. 38 с.
Номинальный битрейт : 5300 Кбит/сек
Ширина : 1488 пикселей
Высота : 1080 пикселей
Соотношение сторон : 1,378
Режим частоты кадров : Постоянный
Частота кадров : 30,000 кадров/сек
Цветовое пространство : YUV
Субдискретизация насыщенности : 4:2:0
Битовая глубина : 8 бит
Тип развёртки : Прогрессивная
Бит/(Пиксели*Кадры) : 0.110
Библиотека кодирования : x264 core 146 r2538 121396c
Настройки программы : cabac=1 / ref=3 / deblock=1:-1:-1 / analyse=0x3:0x113 / me=hex / subme=7 / psy=1 / psy_rd=1.00:0.15 / mixed_ref=1 / me_range=16 / chroma_me=1 / trellis=1 / 8x8dct=1 / cqm=0 / deadzone=21,11 / fast_pskip=1 / chroma_qp_offset=-3 / threads=12 / lookahead_threads=2 / sliced_threads=0 / nr=0 / decimate=1 / interlaced=0 / bluray_compat=0 / constrained_intra=0 / bframes=3 / b_pyramid=2 / b_adapt=1 / b_bias=0 / direct=3 / weightb=1 / open_gop=0 / weightp=2 / keyint=250 / keyint_min=25 / scenecut=40 / intra_refresh=0 / rc_lookahead=40 / rc=2pass / mbtree=1 / bitrate=5300 / ratetol=1.0 / qcomp=0.60 / qpmin=0 / qpmax=69 / qpstep=4 / cplxblur=20.0 / qblur=0.5 / ip_ratio=1.40 / aq=1:1.00
Default : Да
Forced : Нет

Аудио
Идентификатор : 2
Формат : PCM
Идентификатор кодека : A_PCM/INT/LIT
Продолжительность : 3 м. 38 с.
Вид битрейта : Постоянный
Каналы : 2 канала
Частота : 48,0 КГц
Битовая глубина : 16 бит
Default : Да
Forced : Нет

Общее
Уникальный идентификатор : 209782718048619538571114427194294606176 (0x9DD2AE8DC0C034578F1B0514CFDF1960)
Полное имя : D:Сборник русских клиповНовая папкаРусские клипы от ALEXnROCK Часть 3 mкv131 Леонид Агутин - Где-то далеко Full HD.mkv
Формат : Matroska
Версия формата : Version 4 / Version 2
Размер файла : 166 Мбайт
Продолжительность : 4 м. 31 с.
Общий поток : 5144 Кбит/сек
Дата кодирования : UTC 2018-03-11 14:49:08
Программа кодирования : mkvmerge v9.8.0 ('Kuglblids') 64bit
Библиотека кодирования : libebml v1.3.4 + libmatroska v1.4.5

Видео
Идентификатор : 1
Формат : AVC
Формат/Информация : Advanced Video Codec
Профиль формата : High@L4
Настройки формата : CABAC / 8 Ref Frames
Параметр CABAC формата : Да
Параметр RefFrames формата : 8 кадров
Идентификатор кодека : V_MPEG4/ISO/AVC
Продолжительность : 4 м. 31 с.
Битрейт : 3600 Кбит/сек
Ширина : 1280 пикселей
Высота : 720 пикселей
Соотношение сторон : 16:9
Режим частоты кадров : Постоянный
Частота кадров : 25,000 кадров/сек
Цветовое пространство : YUV
Субдискретизация насыщенности : 4:2:0
Битовая глубина : 8 бит
Тип развёртки : Прогрессивная
Бит/(Пиксели*Кадры) : 0.156
Размер потока : 117 Мбайт (70%)
Библиотека кодирования : x264 core 146 r2538 121396c
Настройки программы : cabac=1 / ref=8 / deblock=1:-1:-1 / analyse=0x3:0x113 / me=umh / subme=7 / psy=1 / psy_rd=1.00:0.20 / mixed_ref=1 / me_range=16 / chroma_me=1 / trellis=2 / 8x8dct=1 / cqm=0 / deadzone=21,11 / fast_pskip=0 / chroma_qp_offset=-3 / threads=12 / lookahead_threads=2 / sliced_threads=0 / nr=0 / decimate=0 / interlaced=0 / bluray_compat=0 / constrained_intra=0 / bframes=3 / b_pyramid=2 / b_adapt=2 / b_bias=0 / direct=3 / weightb=1 / open_gop=0 / weightp=2 / keyint=250 / keyint_min=25 / scenecut=40 / intra_refresh=0 / rc_lookahead=50 / rc=2pass / mbtree=1 / bitrate=3600 / ratetol=1.0 / qcomp=0.60 / qpmin=0 / qpmax=69 / qpstep=4 / cplxblur=20.0 / qblur=0.5 / vbv_maxrate=14000 / vbv_bufsize=14000 / nal_hrd=none / filler=0 / ip_ratio=1.40 / aq=1:1.00
Default : Да
Forced : Нет

Аудио
Идентификатор : 2
Формат : PCM
Идентификатор кодека : A_PCM/INT/LIT
Продолжительность : 4 м. 31 с.
Вид битрейта : Постоянный
Битрейт : 1536 Кбит/сек
Каналы : 2 канала
Частота : 48,0 КГц
Частота кадров : 32,001 кадра/сек (1500 SPF)
Битовая глубина : 16 бит
Размер потока : 49,6 Мбайт (30%)
Default : Да
Forced : Нет

Общее
Уникальный идентификатор : 191192847477113187624334246294321548341 (0x8FD6672BB8A41413A3C945879426CC35)
Полное имя : D:Сборник русских клиповНовая папкаРусские клипы от ALEXnROCK Часть 3 mкv132 Банд'Эрос - Бум-синьорита Full HD.mkv
Формат : Matroska
Версия формата : Version 4 / Version 2
Размер файла : 125 Мбайт
Продолжительность : 3 м. 23 с.
Общий поток : 5141 Кбит/сек
Дата кодирования : UTC 2018-11-04 18:36:10
Программа кодирования : mkvmerge v9.8.0 ('Kuglblids') 64bit
Библиотека кодирования : libebml v1.3.4 + libmatroska v1.4.5

Видео
Идентификатор : 1
Формат : AVC
Формат/Информация : Advanced Video Codec
Профиль формата : High@L4
Настройки формата : CABAC / 8 Ref Frames
Параметр CABAC формата : Да
Параметр RefFrames формата : 8 кадров
Идентификатор кодека : V_MPEG4/ISO/AVC
Продолжительность : 3 м. 23 с.
Битрейт : 3600 Кбит/сек
Ширина : 1280 пикселей
Высота : 720 пикселей
Соотношение сторон : 16:9
Режим частоты кадров : Постоянный
Частота кадров : 25,000 кадров/сек
Цветовое пространство : YUV
Субдискретизация насыщенности : 4:2:0
Битовая глубина : 8 бит
Тип развёртки : Прогрессивная
Бит/(Пиксели*Кадры) : 0.156
Размер потока : 87,6 Мбайт (70%)
Библиотека кодирования : x264 core 146 r2538 121396c
Настройки программы : cabac=1 / ref=8 / deblock=1:-1:-1 / analyse=0x3:0x113 / me=umh / subme=7 / psy=1 / psy_rd=1.00:0.20 / mixed_ref=1 / me_range=16 / chroma_me=1 / trellis=2 / 8x8dct=1 / cqm=0 / deadzone=21,11 / fast_pskip=0 / chroma_qp_offset=-3 / threads=12 / lookahead_threads=2 / sliced_threads=0 / nr=0 / decimate=0 / interlaced=0 / bluray_compat=0 / constrained_intra=0 / bframes=3 / b_pyramid=2 / b_adapt=2 / b_bias=0 / direct=3 / weightb=1 / open_gop=0 / weightp=2 / keyint=250 / keyint_min=25 / scenecut=40 / intra_refresh=0 / rc_lookahead=50 / rc=2pass / mbtree=1 / bitrate=3600 / ratetol=1.0 / qcomp=0.60 / qpmin=0 / qpmax=69 / qpstep=4 / cplxblur=20.0 / qblur=0.5 / vbv_maxrate=14000 / vbv_bufsize=14000 / nal_hrd=none / filler=0 / ip_ratio=1.40 / aq=1:1.00
Default : Да
Forced : Нет

Аудио
Идентификатор : 2
Формат : PCM
Идентификатор кодека : A_PCM/INT/LIT
Продолжительность : 3 м. 23 с.
Вид битрейта : Постоянный
Битрейт : 1536 Кбит/сек
Каналы : 2 канала
Частота : 48,0 КГц
Частота кадров : 32,000 кадра/сек (1500 SPF)
Битовая глубина : 16 бит
Размер потока : 37,3 Мбайт (30%)
Default : Да
Forced : Нет

Общее
Уникальный идентификатор : 197099856405733206485596523600148346737 (0x94480D324A603079923A06D8112EB771)
Полное имя : D:Сборник русских клиповНовая папкаРусские клипы от ALEXnROCK Часть 3 mкv133 ВИА Гра - Л.М.Л Full HD..mkv
Формат : Matroska
Версия формата : Version 4 / Version 2
Размер файла : 202 Мбайт
Продолжительность : 4 м. 8 с.
Общий поток : 6836 Кбит/сек
Дата кодирования : UTC 2018-11-05 14:47:03
Программа кодирования : mkvmerge v9.8.0 ('Kuglblids') 64bit
Библиотека кодирования : libebml v1.3.4 + libmatroska v1.4.5

Видео
Идентификатор : 1
Формат : AVC
Формат/Информация : Advanced Video Codec
Профиль формата : High@L4
Настройки формата : CABAC / 4 Ref Frames
Параметр CABAC формата : Да
Параметр RefFrames формата : 4 кадра
Идентификатор кодека : V_MPEG4/ISO/AVC
Продолжительность : 4 м. 8 с.
Битрейт : 5300 Кбит/сек
Ширина : 1456 пикселей
Высота : 1080 пикселей
Соотношение сторон : 4:3
Режим частоты кадров : Постоянный
Частота кадров : 30,000 кадров/сек
Цветовое пространство : YUV
Субдискретизация насыщенности : 4:2:0
Битовая глубина : 8 бит
Тип развёртки : Прогрессивная
Бит/(Пиксели*Кадры) : 0.112
Размер потока : 157 Мбайт (78%)
Библиотека кодирования : x264 core 146 r2538 121396c
Настройки программы : cabac=1 / ref=3 / deblock=1:-1:-1 / analyse=0x3:0x113 / me=hex / subme=7 / psy=1 / psy_rd=1.00:0.15 / mixed_ref=1 / me_range=16 / chroma_me=1 / trellis=1 / 8x8dct=1 / cqm=0 / deadzone=21,11 / fast_pskip=1 / chroma_qp_offset=-3 / threads=12 / lookahead_threads=2 / sliced_threads=0 / nr=0 / decimate=1 / interlaced=0 / bluray_compat=0 / constrained_intra=0 / bframes=3 / b_pyramid=2 / b_adapt=1 / b_bias=0 / direct=3 / weightb=1 / open_gop=0 / weightp=2 / keyint=250 / keyint_min=25 / scenecut=40 / intra_refresh=0 / rc_lookahead=40 / rc=2pass / mbtree=1 / bitrate=5300 / ratetol=1.0 / qcomp=0.60 / qpmin=0 / qpmax=69 / qpstep=4 / cplxblur=20.0 / qblur=0.5 / ip_ratio=1.40 / aq=1:1.00
Default : Да
Forced : Нет

Аудио
Идентификатор : 2
Формат : PCM
Идентификатор кодека : A_PCM/INT/LIT
Продолжительность : 4 м. 7 с.
Вид битрейта : Постоянный
Битрейт : 1536 Кбит/сек
Каналы : 2 канала
Частота : 48,0 КГц
Частота кадров : 32,003 кадра/сек (1500 SPF)
Битовая глубина : 16 бит
Размер потока : 45,4 Мбайт (22%)
Default : Да
Forced : Нет

Общее
Уникальный идентификатор : 226055796575595103790605450835995821890 (0xAA10C34512C35FB0A4D6CC1644768742)
Полное имя : D:Сборник русских клиповНовая папкаРусские клипы от ALEXnROCK Часть 3 mкv134 Иракли - Вова чума Full HD.mkv
Формат : Matroska
Версия формата : Version 4 / Version 2
Размер файла : 169 Мбайт
Продолжительность : 3 м. 26 с.
Общий поток : 6846 Кбит/сек
Дата кодирования : UTC 2018-11-05 13:46:13
Программа кодирования : mkvmerge v9.8.0 ('Kuglblids') 64bit
Библиотека кодирования : libebml v1.3.4 + libmatroska v1.4.5

Видео
Идентификатор : 1
Формат : AVC
Формат/Информация : Advanced Video Codec
Профиль формата : High@L4
Настройки формата : CABAC / 4 Ref Frames
Параметр CABAC формата : Да
Параметр RefFrames формата : 4 кадра
Идентификатор кодека : V_MPEG4/ISO/AVC
Продолжительность : 3 м. 26 с.
Битрейт : 5300 Кбит/сек
Ширина : 1920 пикселей
Высота : 808 пикселей
Соотношение сторон : 2,40:1
Режим частоты кадров : Постоянный
Частота кадров : 30,000 кадров/сек
Цветовое пространство : YUV
Субдискретизация насыщенности : 4:2:0
Битовая глубина : 8 бит
Тип развёртки : Прогрессивная
Бит/(Пиксели*Кадры) : 0.114
Размер потока : 131 Мбайт (78%)
Библиотека кодирования : x264 core 146 r2538 121396c
Настройки программы : cabac=1 / ref=3 / deblock=1:-1:-1 / analyse=0x3:0x113 / me=hex / subme=7 / psy=1 / psy_rd=1.00:0.15 / mixed_ref=1 / me_range=16 / chroma_me=1 / trellis=1 / 8x8dct=1 / cqm=0 / deadzone=21,11 / fast_pskip=1 / chroma_qp_offset=-3 / threads=12 / lookahead_threads=2 / sliced_threads=0 / nr=0 / decimate=1 / interlaced=0 / bluray_compat=0 / constrained_intra=0 / bframes=3 / b_pyramid=2 / b_adapt=1 / b_bias=0 / direct=3 / weightb=1 / open_gop=0 / weightp=2 / keyint=250 / keyint_min=25 / scenecut=40 / intra_refresh=0 / rc_lookahead=40 / rc=2pass / mbtree=1 / bitrate=5300 / ratetol=1.0 / qcomp=0.60 / qpmin=0 / qpmax=69 / qpstep=4 / cplxblur=20.0 / qblur=0.5 / ip_ratio=1.40 / aq=1:1.00
Default : Да
Forced : Нет

Аудио
Идентификатор : 2
Формат : PCM
Идентификатор кодека : A_PCM/INT/LIT
Продолжительность : 3 м. 26 с.
Вид битрейта : Постоянный
Битрейт : 1536 Кбит/сек
Каналы : 2 канала
Частота : 48,0 КГц
Частота кадров : 32,003 кадра/сек (1500 SPF)
Битовая глубина : 16 бит
Размер потока : 37,9 Мбайт (22%)
Default : Да
Forced : Нет

Общее
Уникальный идентификатор : 175946077186405228259236469920231731647 (0x845DFB5B8278F6FA8D46CEA9E12631BF)
Полное имя : D:Сборник русских клиповНовая папкаРусские клипы от ALEXnROCK Часть 3 mкv135 Фабрика - Зажигают огоньки Full HD.mkv
Формат : Matroska
Версия формата : Version 4 / Version 2
Размер файла : 162 Мбайт
Продолжительность : 3 м. 19 с.
Общий поток : 6835 Кбит/сек
Дата кодирования : UTC 2018-11-07 21:15:14
Программа кодирования : mkvmerge v9.8.0 ('Kuglblids') 64bit
Библиотека кодирования : libebml v1.3.4 + libmatroska v1.4.5

Видео
Идентификатор : 1
Формат : AVC
Формат/Информация : Advanced Video Codec
Профиль формата : High@L4
Настройки формата : CABAC / 4 Ref Frames
Параметр CABAC формата : Да
Параметр RefFrames формата : 4 кадра
Идентификатор кодека : V_MPEG4/ISO/AVC
Продолжительность : 3 м. 19 с.
Битрейт : 5300 Кбит/сек
Ширина : 1920 пикселей
Высота : 1056 пикселей
Соотношение сторон : 16:9
Режим частоты кадров : Постоянный
Частота кадров : 30,000 кадров/сек
Цветовое пространство : YUV
Субдискретизация насыщенности : 4:2:0
Битовая глубина : 8 бит
Тип развёртки : Прогрессивная
Бит/(Пиксели*Кадры) : 0.087
Размер потока : 126 Мбайт (78%)
Библиотека кодирования : x264 core 146 r2538 121396c
Настройки программы : cabac=1 / ref=3 / deblock=1:-1:-1 / analyse=0x3:0x113 / me=hex / subme=7 / psy=1 / psy_rd=1.00:0.15 / mixed_ref=1 / me_range=16 / chroma_me=1 / trellis=1 / 8x8dct=1 / cqm=0 / deadzone=21,11 / fast_pskip=1 / chroma_qp_offset=-3 / threads=12 / lookahead_threads=2 / sliced_threads=0 / nr=0 / decimate=1 / interlaced=0 / bluray_compat=0 / constrained_intra=0 / bframes=3 / b_pyramid=2 / b_adapt=1 / b_bias=0 / direct=3 / weightb=1 / open_gop=0 / weightp=2 / keyint=250 / keyint_min=25 / scenecut=40 / intra_refresh=0 / rc_lookahead=40 / rc=2pass / mbtree=1 / bitrate=5300 / ratetol=1.0 / qcomp=0.60 / qpmin=0 / qpmax=69 / qpstep=4 / cplxblur=20.0 / qblur=0.5 / ip_ratio=1.40 / aq=1:1.00
Default : Да
Forced : Нет

Аудио
Идентификатор : 2
Формат : PCM
Идентификатор кодека : A_PCM/INT/LIT
Продолжительность : 3 м. 18 с.
Вид битрейта : Постоянный
Битрейт : 1536 Кбит/сек
Каналы : 2 канала
Частота : 48,0 КГц
Частота кадров : 32,002 кадра/сек (1500 SPF)
Битовая глубина : 16 бит
Размер потока : 36,4 Мбайт (22%)
Default : Да
Forced : Нет

Общее
Уникальный идентификатор : 196264981487042743113144473447556869359 (0x93A742AF5848A7169F7A347CD09E6CEF)
Полное имя : D:Сборник русских клиповНовая папкаРусские клипы от ALEXnROCK Часть 3 mкv136 Любовные истории - Школа Full HD.mkv
Формат : Matroska
Версия формата : Version 4 / Version 2
Размер файла : 218 Мбайт
Продолжительность : 4 м. 27 с.
Общий поток : 6831 Кбит/сек
Дата кодирования : UTC 2018-11-04 10:59:52
Программа кодирования : mkvmerge v9.8.0 ('Kuglblids') 64bit
Библиотека кодирования : libebml v1.3.4 + libmatroska v1.4.5

Видео
Идентификатор : 1
Формат : AVC
Формат/Информация : Advanced Video Codec
Профиль формата : High@L4
Настройки формата : CABAC / 4 Ref Frames
Параметр CABAC формата : Да
Параметр RefFrames формата : 4 кадра
Идентификатор кодека : V_MPEG4/ISO/AVC
Продолжительность : 4 м. 27 с.
Битрейт : 5300 Кбит/сек
Ширина : 1472 пикселя
Высота : 1080 пикселей
Соотношение сторон : 4:3
Режим частоты кадров : Постоянный
Частота кадров : 30,000 кадров/сек
Цветовое пространство : YUV
Субдискретизация насыщенности : 4:2:0
Битовая глубина : 8 бит
Тип развёртки : Прогрессивная
Бит/(Пиксели*Кадры) : 0.111
Размер потока : 169 Мбайт (78%)
Библиотека кодирования : x264 core 146 r2538 121396c
Настройки программы : cabac=1 / ref=3 / deblock=1:-1:-1 / analyse=0x3:0x113 / me=hex / subme=7 / psy=1 / psy_rd=1.00:0.15 / mixed_ref=1 / me_range=16 / chroma_me=1 / trellis=1 / 8x8dct=1 / cqm=0 / deadzone=21,11 / fast_pskip=1 / chroma_qp_offset=-3 / threads=12 / lookahead_threads=2 / sliced_threads=0 / nr=0 / decimate=1 / interlaced=0 / bluray_compat=0 / constrained_intra=0 / bframes=3 / b_pyramid=2 / b_adapt=1 / b_bias=0 / direct=3 / weightb=1 / open_gop=0 / weightp=2 / keyint=250 / keyint_min=25 / scenecut=40 / intra_refresh=0 / rc_lookahead=40 / rc=2pass / mbtree=1 / bitrate=5300 / ratetol=1.0 / qcomp=0.60 / qpmin=0 / qpmax=69 / qpstep=4 / cplxblur=20.0 / qblur=0.5 / ip_ratio=1.40 / aq=1:1.00
Default : Да
Forced : Нет

Аудио
Идентификатор : 2
Формат : PCM
Идентификатор кодека : A_PCM/INT/LIT
Продолжительность : 4 м. 26 с.
Вид битрейта : Постоянный
Битрейт : 1536 Кбит/сек
Каналы : 2 канала
Частота : 48,0 КГц
Частота кадров : 32,002 кадра/сек (1500 SPF)
Битовая глубина : 16 бит
Размер потока : 48,9 Мбайт (22%)
Default : Да
Forced : Нет

Общее
Уникальный идентификатор : 221264433099275921957351076583739385735 (0xA675FACFCE79780690B8C7E990326787)
Полное имя : D:Сборник русских клиповНовая папкаРусские клипы от ALEXnROCK Часть 3 mкv137 Ирина Салтыкова - Бегу за тобой Full HD.mkv
Формат : Matroska
Версия формата : Version 4 / Version 2
Размер файла : 163 Мбайт
Продолжительность : 3 м. 20 с.
Общий поток : 6848 Кбит/сек
Дата кодирования : UTC 2018-11-04 23:44:46
Программа кодирования : mkvmerge v9.8.0 ('Kuglblids') 64bit
Библиотека кодирования : libebml v1.3.4 + libmatroska v1.4.5

Видео
Идентификатор : 1
Формат : AVC
Формат/Информация : Advanced Video Codec
Профиль формата : High@L4
Настройки формата : CABAC / 4 Ref Frames
Параметр CABAC формата : Да
Параметр RefFrames формата : 4 кадра
Идентификатор кодека : V_MPEG4/ISO/AVC
Продолжительность : 3 м. 20 с.
Битрейт : 5300 Кбит/сек
Ширина : 1920 пикселей
Высота : 1080 пикселей
Соотношение сторон : 16:9
Режим частоты кадров : Постоянный
Частота кадров : 30,000 кадров/сек
Цветовое пространство : YUV
Субдискретизация насыщенности : 4:2:0
Битовая глубина : 8 бит
Тип развёртки : Прогрессивная
Бит/(Пиксели*Кадры) : 0.085
Размер потока : 127 Мбайт (78%)
Библиотека кодирования : x264 core 146 r2538 121396c
Настройки программы : cabac=1 / ref=3 / deblock=1:-1:-1 / analyse=0x3:0x113 / me=hex / subme=7 / psy=1 / psy_rd=1.00:0.15 / mixed_ref=1 / me_range=16 / chroma_me=1 / trellis=1 / 8x8dct=1 / cqm=0 / deadzone=21,11 / fast_pskip=1 / chroma_qp_offset=-3 / threads=12 / lookahead_threads=2 / sliced_threads=0 / nr=0 / decimate=1 / interlaced=0 / bluray_compat=0 / constrained_intra=0 / bframes=3 / b_pyramid=2 / b_adapt=1 / b_bias=0 / direct=3 / weightb=1 / open_gop=0 / weightp=2 / keyint=250 / keyint_min=25 / scenecut=40 / intra_refresh=0 / rc_lookahead=40 / rc=2pass / mbtree=1 / bitrate=5300 / ratetol=1.0 / qcomp=0.60 / qpmin=0 / qpmax=69 / qpstep=4 / cplxblur=20.0 / qblur=0.5 / ip_ratio=1.40 / aq=1:1.00
Default : Да
Forced : Нет

Аудио
Идентификатор : 2
Формат : PCM
Идентификатор кодека : A_PCM/INT/LIT
Продолжительность : 3 м. 19 с.
Вид битрейта : Постоянный
Битрейт : 1536 Кбит/сек
Каналы : 2 канала
Частота : 48,0 КГц
Частота кадров : 32,001 кадра/сек (1500 SPF)
Битовая глубина : 16 бит
Размер потока : 36,6 Мбайт (22%)
Default : Да
Forced : Нет

Общее
Уникальный идентификатор : 242105079537570784576285651215394848736 (0xB623BE033DE749ACA0E780D5A444BFE0)
Полное имя : D:Сборник русских клиповНовая папкаРусские клипы от ALEXnROCK Часть 3 mкv138 Ани Лорак и Тимур Родригез - Увлечение Full HD.mkv
Формат : Matroska
Версия формата : Version 4 / Version 2
Размер файла : 185 Мбайт
Продолжительность : 3 м. 46 с.
Общий поток : 6844 Кбит/сек
Дата кодирования : UTC 2018-11-05 21:45:17
Программа кодирования : mkvmerge v9.8.0 ('Kuglblids') 64bit
Библиотека кодирования : libebml v1.3.4 + libmatroska v1.4.5

Видео
Идентификатор : 1
Формат : AVC
Формат/Информация : Advanced Video Codec
Профиль формата : High@L4
Настройки формата : CABAC / 4 Ref Frames
Параметр CABAC формата : Да
Параметр RefFrames формата : 4 кадра
Идентификатор кодека : V_MPEG4/ISO/AVC
Продолжительность : 3 м. 46 с.
Битрейт : 5300 Кбит/сек
Ширина : 1456 пикселей
Высота : 1080 пикселей
Соотношение сторон : 4:3
Режим частоты кадров : Постоянный
Частота кадров : 30,000 кадров/сек
Цветовое пространство : YUV
Субдискретизация насыщенности : 4:2:0
Битовая глубина : 8 бит
Тип развёртки : Прогрессивная
Бит/(Пиксели*Кадры) : 0.112
Размер потока : 143 Мбайт (78%)
Библиотека кодирования : x264 core 146 r2538 121396c
Настройки программы : cabac=1 / ref=3 / deblock=1:-1:-1 / analyse=0x3:0x113 / me=hex / subme=7 / psy=1 / psy_rd=1.00:0.15 / mixed_ref=1 / me_range=16 / chroma_me=1 / trellis=1 / 8x8dct=1 / cqm=0 / deadzone=21,11 / fast_pskip=1 / chroma_qp_offset=-3 / threads=12 / lookahead_threads=2 / sliced_threads=0 / nr=0 / decimate=1 / interlaced=0 / bluray_compat=0 / constrained_intra=0 / bframes=3 / b_pyramid=2 / b_adapt=1 / b_bias=0 / direct=3 / weightb=1 / open_gop=0 / weightp=2 / keyint=250 / keyint_min=25 / scenecut=40 / intra_refresh=0 / rc_lookahead=40 / rc=2pass / mbtree=1 / bitrate=5300 / ratetol=1.0 / qcomp=0.60 / qpmin=0 / qpmax=69 / qpstep=4 / cplxblur=20.0 / qblur=0.5 / ip_ratio=1.40 / aq=1:1.00
Default : Да
Forced : Нет

Аудио
Идентификатор : 2
Формат : PCM
Идентификатор кодека : A_PCM/INT/LIT
Продолжительность : 3 м. 46 с.
Вид битрейта : Постоянный
Битрейт : 1536 Кбит/сек
Каналы : 2 канала
Частота : 48,0 КГц
Частота кадров : 32,001 кадра/сек (1500 SPF)
Битовая глубина : 16 бит
Размер потока : 41,5 Мбайт (22%)
Default : Да
Forced : Нет

Общее
Уникальный идентификатор : 175957409075334907287463505361152364320 (0x84602A100E6333148D1E4E9242F5CF20)
Полное имя : D:Сборник русских клиповНовая папкаРусские клипы от ALEXnROCK Часть 3 mкv139 Валерия - Радуга Full HD.mkv
Формат : Matroska
Версия формата : Version 4 / Version 2
Размер файла : 186 Мбайт
Продолжительность : 3 м. 47 с.
Общий поток : 6848 Кбит/сек
Дата кодирования : UTC 2018-11-05 15:59:26
Программа кодирования : mkvmerge v9.8.0 ('Kuglblids') 64bit
Библиотека кодирования : libebml v1.3.4 + libmatroska v1.4.5

Видео
Идентификатор : 1
Формат : AVC
Формат/Информация : Advanced Video Codec
Профиль формата : High@L4
Настройки формата : CABAC / 4 Ref Frames
Параметр CABAC формата : Да
Параметр RefFrames формата : 4 кадра
Параметр GOP формата : M=1, N=6
Идентификатор кодека : V_MPEG4/ISO/AVC
Продолжительность : 3 м. 47 с.
Битрейт : 5300 Кбит/сек
Ширина : 1920 пикселей
Высота : 1080 пикселей
Соотношение сторон : 16:9
Режим частоты кадров : Постоянный
Частота кадров : 30,000 кадров/сек
Цветовое пространство : YUV
Субдискретизация насыщенности : 4:2:0
Битовая глубина : 8 бит
Тип развёртки : Прогрессивная
Бит/(Пиксели*Кадры) : 0.085
Размер потока : 144 Мбайт (78%)
Библиотека кодирования : x264 core 146 r2538 121396c
Настройки программы : cabac=1 / ref=3 / deblock=1:-1:-1 / analyse=0x3:0x113 / me=hex / subme=7 / psy=1 / psy_rd=1.00:0.15 / mixed_ref=1 / me_range=16 / chroma_me=1 / trellis=1 / 8x8dct=1 / cqm=0 / deadzone=21,11 / fast_pskip=1 / chroma_qp_offset=-3 / threads=12 / lookahead_threads=2 / sliced_threads=0 / nr=0 / decimate=1 / interlaced=0 / bluray_compat=0 / constrained_intra=0 / bframes=3 / b_pyramid=2 / b_adapt=1 / b_bias=0 / direct=3 / weightb=1 / open_gop=0 / weightp=2 / keyint=250 / keyint_min=25 / scenecut=40 / intra_refresh=0 / rc_lookahead=40 / rc=2pass / mbtree=1 / bitrate=5300 / ratetol=1.0 / qcomp=0.60 / qpmin=0 / qpmax=69 / qpstep=4 / cplxblur=20.0 / qblur=0.5 / ip_ratio=1.40 / aq=1:1.00
Default : Да
Forced : Нет

Аудио
Идентификатор : 2
Формат : PCM
Идентификатор кодека : A_PCM/INT/LIT
Продолжительность : 3 м. 46 с.
Вид битрейта : Постоянный
Битрейт : 1536 Кбит/сек
Каналы : 2 канала
Частота : 48,0 КГц
Частота кадров : 32,003 кадра/сек (1500 SPF)
Битовая глубина : 16 бит
Размер потока : 41,5 Мбайт (22%)
Default : Да
Forced : Нет

Общее
Уникальный идентификатор : 233760141834483830877616771834335111018 (0xAFDC90D1796AF7348FF203BB3C56A76A)
Полное имя : D:Сборник русских клиповНовая папкаРусские клипы от ALEXnROCK Часть 3 mкv140 Леонид Агутин - По дороге на юг Full HD.mkv
Формат : Matroska
Версия формата : Version 4 / Version 2
Размер файла : 174 Мбайт
Продолжительность : 3 м. 33 с.
Общий поток : 6830 Кбит/сек
Дата кодирования : UTC 2018-11-05 23:16:13
Программа кодирования : mkvmerge v9.8.0 ('Kuglblids') 64bit
Библиотека кодирования : libebml v1.3.4 + libmatroska v1.4.5

Видео
Идентификатор : 1
Формат : AVC
Формат/Информация : Advanced Video Codec
Профиль формата : High@L4
Настройки формата : CABAC / 4 Ref Frames
Параметр CABAC формата : Да
Параметр RefFrames формата : 4 кадра
Идентификатор кодека : V_MPEG4/ISO/AVC
Продолжительность : 3 м. 33 с.
Битрейт : 5300 Кбит/сек
Ширина : 1440 пикселей
Высота : 1080 пикселей
Соотношение сторон : 4:3
Режим частоты кадров : Постоянный
Частота кадров : 30,000 кадров/сек
Цветовое пространство : YUV
Субдискретизация насыщенности : 4:2:0
Битовая глубина : 8 бит
Тип развёртки : Прогрессивная
Бит/(Пиксели*Кадры) : 0.114
Размер потока : 135 Мбайт (77%)
Библиотека кодирования : x264 core 146 r2538 121396c
Настройки программы : cabac=1 / ref=3 / deblock=1:-1:-1 / analyse=0x3:0x113 / me=hex / subme=7 / psy=1 / psy_rd=1.00:0.15 / mixed_ref=1 / me_range=16 / chroma_me=1 / trellis=1 / 8x8dct=1 / cqm=0 / deadzone=21,11 / fast_pskip=1 / chroma_qp_offset=-3 / threads=12 / lookahead_threads=2 / sliced_threads=0 / nr=0 / decimate=1 / interlaced=0 / bluray_compat=0 / constrained_intra=0 / bframes=3 / b_pyramid=2 / b_adapt=1 / b_bias=0 / direct=3 / weightb=1 / open_gop=0 / weightp=2 / keyint=250 / keyint_min=25 / scenecut=40 / intra_refresh=0 / rc_lookahead=40 / rc=2pass / mbtree=1 / bitrate=5300 / ratetol=1.0 / qcomp=0.60 / qpmin=0 / qpmax=69 / qpstep=4 / cplxblur=20.0 / qblur=0.5 / ip_ratio=1.40 / aq=1:1.00
Default : Да
Forced : Нет

Аудио
Идентификатор : 2
Формат : PCM
Идентификатор кодека : A_PCM/INT/LIT
Продолжительность : 3 м. 33 с.
Вид битрейта : Постоянный
Битрейт : 1536 Кбит/сек
Каналы : 2 канала
Частота : 48,0 КГц
Частота кадров : 32,003 кадра/сек (1500 SPF)
Битовая глубина : 16 бит
Размер потока : 39,2 Мбайт (22%)
Default : Да
Forced : Нет

Общее
Уникальный идентификатор : 202617909246138481543462011165925496307 (0x986ECA34D492995A86B2D5AB74FCD5F3)
Полное имя : D:Сборник русских клиповНовая папкаРусские клипы от ALEXnROCK Часть 3 mкv141 Иракли - Я с тобой Full HD.mkv
Формат : Matroska
Версия формата : Version 4 / Version 2
Размер файла : 187 Мбайт
Продолжительность : 3 м. 49 с.
Общий поток : 6838 Кбит/сек
Дата кодирования : UTC 2018-11-06 14:15:54
Программа кодирования : mkvmerge v9.8.0 ('Kuglblids') 64bit
Библиотека кодирования : libebml v1.3.4 + libmatroska v1.4.5

Видео
Идентификатор : 1
Формат : AVC
Формат/Информация : Advanced Video Codec
Профиль формата : High@L4
Настройки формата : CABAC / 4 Ref Frames
Параметр CABAC формата : Да
Параметр RefFrames формата : 4 кадра
Идентификатор кодека : V_MPEG4/ISO/AVC
Продолжительность : 3 м. 49 с.
Битрейт : 5300 Кбит/сек
Ширина : 1920 пикселей
Высота : 1080 пикселей
Соотношение сторон : 16:9
Режим частоты кадров : Постоянный
Частота кадров : 30,000 кадров/сек
Цветовое пространство : YUV
Субдискретизация насыщенности : 4:2:0
Битовая глубина : 8 бит
Тип развёртки : Прогрессивная
Бит/(Пиксели*Кадры) : 0.085
Размер потока : 145 Мбайт (78%)
Библиотека кодирования : x264 core 146 r2538 121396c
Настройки программы : cabac=1 / ref=3 / deblock=1:-1:-1 / analyse=0x3:0x113 / me=hex / subme=7 / psy=1 / psy_rd=1.00:0.15 / mixed_ref=1 / me_range=16 / chroma_me=1 / trellis=1 / 8x8dct=1 / cqm=0 / deadzone=21,11 / fast_pskip=1 / chroma_qp_offset=-3 / threads=12 / lookahead_threads=2 / sliced_threads=0 / nr=0 / decimate=1 / interlaced=0 / bluray_compat=0 / constrained_intra=0 / bframes=3 / b_pyramid=2 / b_adapt=1 / b_bias=0 / direct=3 / weightb=1 / open_gop=0 / weightp=2 / keyint=250 / keyint_min=25 / scenecut=40 / intra_refresh=0 / rc_lookahead=40 / rc=2pass / mbtree=1 / bitrate=5300 / ratetol=1.0 / qcomp=0.60 / qpmin=0 / qpmax=69 / qpstep=4 / cplxblur=20.0 / qblur=0.5 / ip_ratio=1.40 / aq=1:1.00
Default : Да
Forced : Нет

Аудио
Идентификатор : 2
Формат : PCM
Идентификатор кодека : A_PCM/INT/LIT
Продолжительность : 3 м. 49 с.
Вид битрейта : Постоянный
Битрейт : 1536 Кбит/сек
Каналы : 2 канала
Частота : 48,0 КГц
Частота кадров : 32,003 кадра/сек (1500 SPF)
Битовая глубина : 16 бит
Размер потока : 42,0 Мбайт (22%)
Default : Да
Forced : Нет

Общее
Уникальный идентификатор : 180411890943482991392182946766820144365 (0x87BA10F9A310496BA8DBC1A2D19EF4ED)
Полное имя : D:Сборник русских клиповНовая папкаРусские клипы от ALEXnROCK Часть 3 mкv142 Reflex - Жесткое диско Full HD.mkv
Формат : Matroska
Версия формата : Version 4 / Version 2
Размер файла : 193 Мбайт
Продолжительность : 3 м. 56 с.
Общий поток : 6842 Кбит/сек
Дата кодирования : UTC 2018-11-06 15:43:40
Программа кодирования : mkvmerge v9.8.0 ('Kuglblids') 64bit
Библиотека кодирования : libebml v1.3.4 + libmatroska v1.4.5

Видео
Идентификатор : 1
Формат : AVC
Формат/Информация : Advanced Video Codec
Профиль формата : High@L4
Настройки формата : CABAC / 4 Ref Frames
Параметр CABAC формата : Да
Параметр RefFrames формата : 4 кадра
Идентификатор кодека : V_MPEG4/ISO/AVC
Продолжительность : 3 м. 56 с.
Битрейт : 5300 Кбит/сек
Ширина : 1808 пикселей
Высота : 1080 пикселей
Соотношение сторон : 5:3
Режим частоты кадров : Постоянный
Частота кадров : 30,000 кадров/сек
Цветовое пространство : YUV
Субдискретизация насыщенности : 4:2:0
Битовая глубина : 8 бит
Тип развёртки : Прогрессивная
Бит/(Пиксели*Кадры) : 0.090
Размер потока : 149 Мбайт (78%)
Библиотека кодирования : x264 core 146 r2538 121396c
Настройки программы : cabac=1 / ref=3 / deblock=1:-1:-1 / analyse=0x3:0x113 / me=hex / subme=7 / psy=1 / psy_rd=1.00:0.15 / mixed_ref=1 / me_range=16 / chroma_me=1 / trellis=1 / 8x8dct=1 / cqm=0 / deadzone=21,11 / fast_pskip=1 / chroma_qp_offset=-3 / threads=12 / lookahead_threads=2 / sliced_threads=0 / nr=0 / decimate=1 / interlaced=0 / bluray_compat=0 / constrained_intra=0 / bframes=3 / b_pyramid=2 / b_adapt=1 / b_bias=0 / direct=3 / weightb=1 / open_gop=0 / weightp=2 / keyint=250 / keyint_min=25 / scenecut=40 / intra_refresh=0 / rc_lookahead=40 / rc=2pass / mbtree=1 / bitrate=5300 / ratetol=1.0 / qcomp=0.60 / qpmin=0 / qpmax=69 / qpstep=4 / cplxblur=20.0 / qblur=0.5 / ip_ratio=1.40 / aq=1:1.00
Default : Да
Forced : Нет

Аудио
Идентификатор : 2
Формат : PCM
Идентификатор кодека : A_PCM/INT/LIT
Продолжительность : 3 м. 55 с.
Вид битрейта : Постоянный
Битрейт : 1536 Кбит/сек
Каналы : 2 канала
Частота : 48,0 КГц
Частота кадров : 32,004 кадра/сек (1500 SPF)
Битовая глубина : 16 бит
Размер потока : 43,1 Мбайт (22%)
Default : Да
Forced : Нет

Общее
Уникальный идентификатор : 174037502253510269783221898131844395096 (0x82EE67591F298F2F8BFC8BD84BE47058)
Полное имя : D:Сборник русских клиповНовая папкаРусские клипы от ALEXnROCK Часть 3 mкv143 23.45 - Друг без друга Full HD.mkv
Формат : Matroska
Версия формата : Version 4 / Version 2
Размер файла : 157 Мбайт
Продолжительность : 3 м. 13 с.
Общий поток : 6841 Кбит/сек
Дата кодирования : UTC 2018-11-05 23:57:24
Программа кодирования : mkvmerge v9.8.0 ('Kuglblids') 64bit
Библиотека кодирования : libebml v1.3.4 + libmatroska v1.4.5

Видео
Идентификатор : 1
Формат : AVC
Формат/Информация : Advanced Video Codec
Профиль формата : High@L4
Настройки формата : CABAC / 4 Ref Frames
Параметр CABAC формата : Да
Параметр RefFrames формата : 4 кадра
Идентификатор кодека : V_MPEG4/ISO/AVC
Продолжительность : 3 м. 13 с.
Битрейт : 5300 Кбит/сек
Ширина : 1920 пикселей
Высота : 920 пикселей
Соотношение сторон : 2,087
Режим частоты кадров : Постоянный
Частота кадров : 30,000 кадров/сек
Цветовое пространство : YUV
Субдискретизация насыщенности : 4:2:0
Битовая глубина : 8 бит
Тип развёртки : Прогрессивная
Бит/(Пиксели*Кадры) : 0.100
Размер потока : 122 Мбайт (78%)
Библиотека кодирования : x264 core 146 r2538 121396c
Настройки программы : cabac=1 / ref=3 / deblock=1:-1:-1 / analyse=0x3:0x113 / me=hex / subme=7 / psy=1 / psy_rd=1.00:0.15 / mixed_ref=1 / me_range=16 / chroma_me=1 / trellis=1 / 8x8dct=1 / cqm=0 / deadzone=21,11 / fast_pskip=1 / chroma_qp_offset=-3 / threads=12 / lookahead_threads=2 / sliced_threads=0 / nr=0 / decimate=1 / interlaced=0 / bluray_compat=0 / constrained_intra=0 / bframes=3 / b_pyramid=2 / b_adapt=1 / b_bias=0 / direct=3 / weightb=1 / open_gop=0 / weightp=2 / keyint=250 / keyint_min=25 / scenecut=40 / intra_refresh=0 / rc_lookahead=40 / rc=2pass / mbtree=1 / bitrate=5300 / ratetol=1.0 / qcomp=0.60 / qpmin=0 / qpmax=69 / qpstep=4 / cplxblur=20.0 / qblur=0.5 / ip_ratio=1.40 / aq=1:1.00
Default : Да
Forced : Нет

Аудио
Идентификатор : 2
Формат : PCM
Идентификатор кодека : A_PCM/INT/LIT
Продолжительность : 3 м. 13 с.
Вид битрейта : Постоянный
Битрейт : 1536 Кбит/сек
Каналы : 2 канала
Частота : 48,0 КГц
Частота кадров : 32,003 кадра/сек (1500 SPF)
Битовая глубина : 16 бит
Размер потока : 35,3 Мбайт (22%)
Default : Да
Forced : Нет

Общее
Уникальный идентификатор : 202444482912995992906441609039198025291 (0x984D63A0C390F8478DA59339ADE7F64B)
Полное имя : D:Сборник русских клиповНовая папкаРусские клипы от ALEXnROCK Часть 3 mкv144 Варвара - Летала да пела Full HD.mkv
Формат : Matroska
Версия формата : Version 4 / Version 2
Размер файла : 193 Мбайт
Продолжительность : 3 м. 56 с.
Общий поток : 6843 Кбит/сек
Дата кодирования : UTC 2018-11-06 11:56:22
Программа кодирования : mkvmerge v9.8.0 ('Kuglblids') 64bit
Библиотека кодирования : libebml v1.3.4 + libmatroska v1.4.5

Видео
Идентификатор : 1
Формат : AVC
Формат/Информация : Advanced Video Codec
Профиль формата : High@L4
Настройки формата : CABAC / 4 Ref Frames
Параметр CABAC формата : Да
Параметр RefFrames формата : 4 кадра
Параметр GOP формата : M=1, N=6
Идентификатор кодека : V_MPEG4/ISO/AVC
Продолжительность : 3 м. 56 с.
Битрейт : 5300 Кбит/сек
Ширина : 1920 пикселей
Высота : 1080 пикселей
Соотношение сторон : 16:9
Режим частоты кадров : Постоянный
Частота кадров : 30,000 кадров/сек
Цветовое пространство : YUV
Субдискретизация насыщенности : 4:2:0
Битовая глубина : 8 бит
Тип развёртки : Прогрессивная
Бит/(Пиксели*Кадры) : 0.085
Размер потока : 150 Мбайт (78%)
Библиотека кодирования : x264 core 146 r2538 121396c
Настройки программы : cabac=1 / ref=3 / deblock=1:-1:-1 / analyse=0x3:0x113 / me=hex / subme=7 / psy=1 / psy_rd=1.00:0.15 / mixed_ref=1 / me_range=16 / chroma_me=1 / trellis=1 / 8x8dct=1 / cqm=0 / deadzone=21,11 / fast_pskip=1 / chroma_qp_offset=-3 / threads=12 / lookahead_threads=2 / sliced_threads=0 / nr=0 / decimate=1 / interlaced=0 / bluray_compat=0 / constrained_intra=0 / bframes=3 / b_pyramid=2 / b_adapt=1 / b_bias=0 / direct=3 / weightb=1 / open_gop=0 / weightp=2 / keyint=250 / keyint_min=25 / scenecut=40 / intra_refresh=0 / rc_lookahead=40 / rc=2pass / mbtree=1 / bitrate=5300 / ratetol=1.0 / qcomp=0.60 / qpmin=0 / qpmax=69 / qpstep=4 / cplxblur=20.0 / qblur=0.5 / ip_ratio=1.40 / aq=1:1.00
Default : Да
Forced : Нет

Аудио
Идентификатор : 2
Формат : PCM
Идентификатор кодека : A_PCM/INT/LIT
Продолжительность : 3 м. 56 с.
Вид битрейта : Постоянный
Битрейт : 1536 Кбит/сек
Каналы : 2 канала
Частота : 48,0 КГц
Частота кадров : 32,002 кадра/сек (1500 SPF)
Битовая глубина : 16 бит
Размер потока : 43,3 Мбайт (22%)
Default : Да
Forced : Нет

Общее
Уникальный идентификатор : 182922289844609718520237848348864371785 (0x899D8D326E42BD9183E756A1B1595C49)
Полное имя : D:Сборник русских клиповНовая папкаРусские клипы от ALEXnROCK Часть 3 mкv145 Mr. Credo - Чудная долина Full HD.mkv
Формат : Matroska
Версия формата : Version 4 / Version 2
Размер файла : 142 Мбайт
Продолжительность : 4 м. 1 с.
Общий поток : 4930 Кбит/сек
Дата кодирования : UTC 2017-09-08 13:20:03
Программа кодирования : mkvmerge v9.8.0 ('Kuglblids') 64bit
Библиотека кодирования : libebml v1.3.4 + libmatroska v1.4.5

Видео
Идентификатор : 1
Формат : AVC
Формат/Информация : Advanced Video Codec
Профиль формата : High@L4
Настройки формата : CABAC / 4 Ref Frames
Параметр CABAC формата : Да
Параметр RefFrames формата : 4 кадра
Идентификатор кодека : V_MPEG4/ISO/AVC
Продолжительность : 4 м. 1 с.
Битрейт : 3400 Кбит/сек
Ширина : 1280 пикселей
Высота : 576 пикселей
Соотношение сторон : 2,222
Режим частоты кадров : Постоянный
Частота кадров : 25,000 кадров/сек
Цветовое пространство : YUV
Субдискретизация нас
Музыка / Клипы и Музыкальное видео / Разное
СКАЧАТЬ БЕСПЛАТНО  [7.9 GB]


28
авг
2017

VA - Сборник русских клипов от ALEXnROCK Часть 2 [2017, Pop, DVDRip, 720р]

Формат: DVDRip, MKV, Н264, PCM
Песня: VA - Сборник русских клипов от ALEXnROCK Часть 2
Жанр: Pop
Продолжительность: 03:48:19
Год выпуска: 2017
Видео: 1280x612-720 (16x9) 1280x864-904(4x3) 25 fps (High@L4) 3400kbps 0.87-0.127 bit.pixel
Аудио: 48000Hz, PCM, 2 ch, 1536kbps
Доп. информация: В популярной музыке есть два направления, попса и поп музыка. К попсе относится примитивная клубная траляляйка и тому подобная шляпа, для тех у кого нет слуха, лишь бы было много голых задниц и тыц-тыц бум-бум и погромче). Поп музыка более интереснее и глубже со своей музыкальной гармонией, а в некоторых и смы ...

18
авг
2017

VA - Сборник русских клипов от ALEXnROCK Часть 1 [2017, Pop, DVDRip, 720р]

Формат: DVDRip, MKV, H.264, PCM
Песня: Сборник русских клипов от ALEXnROCK
Жанр: Pop
Продолжительность: 03:45:54
Год выпуска: 2017
Видео: 1280x612-720 (16x9) 1280x864-896(4x3) 25 fps (High@L4) 3400kbps 0.87-0.121 bit.pixel
Аудио: 48000Hz, PCM, 2 ch, 1536kbps
Доп. информация: В современной популярной музыке есть два направления, попса и поп музыка. К попсе относится примитивная клубная траляляйка и тому подобная шляпа, для тех у кого нет слуха, лишь бы было много голых задниц и тыц-тыц бум-бум и погромче). Поп музыка более интереснее и глубже со своей музыкальной гармонией, а в некоторых и смы ...

07
авг
2017

VA - Сборник русских клипов от ALEXnROCK Часть 2 [2017, Pop, DVDRip]

Формат: DVDRip, AVI, XviD, MP3
Песня: Сборник русских клипов от ALEXnROCK Часть 2
Жанр: Pop
Продолжительность: 03:48:19
Год выпуска: 2017
Видео: 720x408 (16:9) 720x504 (4:3) 25 fps, XviD build 63, 2400Kbps 0.25-0.31 bit/pixel
Аудио: 44000-48000Hz, Mp3, 2 ch, 320Kbps
Доп. информация: В популярной музыке есть два направления, попса и поп музыка. К попсе относится примитивная клубная траляляйка и тому подобная шляпа, для тех у кого нет слуха, лишь бы было много голых задниц и тыц-тыц бум-бум и погромче). Поп музыка более интереснее и глубже со своей музыкальной гармонией, а в некоторых и смысл м ...

22
апр
2016

VA - Сборник клипов - Ballads для любимой от ALEXnROCK Часть 1 (2016) DVDRip

Формат: DVDRip, AVI, XviD, MP3
Название: Ballads для любимой от ALEXnROCK
Жанр: Rock, Pop
Продолжительность: 04:27:21
Год выпуска: 2016
Видео: 720x408-720х440 (16:9) 720x520-720x540 (4:3) 25-23.976 fps, XviD build 63,~ 1900-2500Kbps 0.25-0.31 bit/pixel
Аудио: Mp3 44000-48000KHz, 2 ch, stereo 256-320 Kbps
Доп. информация: Этот сборник я собирал когда то для девушки которую очень любил и вложил в него всю свою душу. Вам понравится моя работа. Уверен, каждый кто хоть раз в жизни любил по настоящему, найдет в нем частичку себя. Эта серия сборников подходит для провождения времени с любимым челове ...

21
апр
2016

VA - Сборник клипов - Рэгги от ALEXnROCK. Часть 1 [2016 Reggae, DVDRip]

Формат: DVDRip, AVI, XviD, MP3
Название: Рэгги от ALEXnROCK
Жанр: Reggae
Продолжительность: 04:18:11
Год выпуска: 2016
Видео: 720x408-720х440 (16:9) 720x520-720x536 (4:3) 25-23.976 fps, XviD build 63,~ 2000-2400Kbps 0.25-0.31 bit/pixel
Аудио: 44000-48000KHz, Mp3, 2 ch, stereo 192-256 Kbps
Доп. информация: В сборник вошли самые мелодичные клипы мирового рэгги. Эта музыка пропитана ямайским духом и жарким климатом тропиков. Для всех любителей солнечной музыки и почитателей легендарного Боба Марли. От себя добавлю, Если б я мог превратиться в музыку, то стал бы позитивным ямайским солнечным рэгг ...

14
апр
2016

VA - Сборник клипов - Русские от ALEXnROCK Часть 1 [2016, Pop, DVDRip]

Формат: DVDRip, AVI, XviD, MP3
Песня: Русские от ALEXnROCK Часть 1
Жанр: Pop
Продолжительность: 03:55:07
Год выпуска: 2016
Видео: 720x408-720х440 (16:9) 720x520-720x536 (4:3) 25-23.976 fps, XviD build 63, 2300-2600Kbps 0.25-0.31 bit/pixel
Аудио: Mp3 44000-48000KHz, 2 ch, stereo 256 Kbps
Доп. информация: В современной популярной музыке есть два направления, попса и поп музыка. К попсе относится примитивная клубная траляляйка и тому подобная шляпа, для тех у кого нет слуха, лишь бы было много голых задниц и тыц-тыц бум-бум и погромче). Поп музыка более интереснее и глубже со своей музыкальной г ...

17
апр
2016

VA - Сборник клипов - Best of Hits 90х от ALEXnROCK Часть 1 [2016, Pop, DVDRip]

Формат: DVDRip, AVI, XviD, MP3
Название: Best of Hits 90х от ALEXnROCK
Жанр: Pop
Продолжительность: 03:54:29
Год выпуска: 2016
Видео: 720x412-720х440 (16:9) 720x520-720x540 (4:3) 25-23.976 fps, XviD build 63,~ 2000-2600Kbps 0.25-0.31 bit/pixel
Аудио: Mp3 44000-48000KHz, 2 ch, stereo 224-256 Kbps
Доп. информация: В сборник вошли самые хитовые и фишкастые клипы лихих 90х. В нем я постарался отразить все обояние того времени, пускай неопределенное и даже дикое, но все же мне приятно вспоминать то время. Время поднятия с колен нашей великой и большой страны, имею в виду весь бывший союз. Это 1 ча ...

05
июн
2016

VA - Сборник клипов - Русский Рок от ALEXnROCK Часть 1 [2016, Rock, DVDRip]

Формат: DVDRip, AVI, XviD, MP3
Название: Русский Рок от ALEXnROCK
Жанр: Rock
Продолжительность: 03:43:49
Год выпуска: 2016
Видео: 720x408-720х440 (16:9) 720x520-720x536 (4:3) 25-23.976 fps, XviD build 63,~ 2000-2400Kbps 0.25-0.31 bit/pixel
Аудио: 44000-48000KHz, Mp3, 2 ch, stereo 256-320 Kbps
Доп. информация: Посвящается рок музыкантам и поэтам рано ушедшим, но продолжающим жить в своих стихах и песнях - исцелять,и радовать сердца и души людей своим творчеством. В сборник вошли самые сильные клипы за всю историю русского рока. Наши рокеры раньше не сильно заботились о качестве видео и о звуке ...

18
апр
2016

VA - Сборник клипов - Хиты 80х от ALEXnROCK. Часть 1 [2016, Pop, DVDRip]

Формат: DVDRip, AVI, XviD, MP3
Название: Хиты 80х от ALEXnROCK
Жанр: Pop
Продолжительность: 03:55:23
Год выпуска: 2016
Видео: 720x412-720х440 (16:9) 720x520-720x540 (4:3) 25-23.976 fps, XviD build 63,~ 2300-2600Kbps 0.25-0.31 bit/pixel
Аудио: Mp3 44000-48000KHz, 2 ch, stereo 224-256 Kbps
Доп. информация: В сборник вошли самые хитовые клипы середины и конца 80х. Позитивная и добрая музыка. Многие вспомят себя много лет назад, кто то вспомнит детство, кто то юность и первую любовь, те кто постарше молодость и все закружатся в танце с памятью. Это 1 часть сборника. Читается любым двд плеером. Об ...

01
дек
2017

VA - Best Pop Hits 2000-2016 от ALEXnROCK (часть 2) [2017, Pop, DVDRip]

Формат: DVDRip, AVI, XviD, MP3
Песня: VA - Best Pop Hits 2000-2016 от ALEXnROCK (часть 2) DVDRip
Жанр: Pop
Продолжительность: 03:45:12
Год выпуска: 2017
Видео: 720x488-504 (4:3) 720x320-408 (16:9) 25 fps, XVID build 63, 2400Kbps 0.25-0.31 bit/pixel
Аудио: 44000-48000Hz, Mp3, 2 ch, 320Kbps
Доп. информация: В сборник вошли клипы только с понастоящему качественной поп музыкой с 2000 по 2016г. Тут нет однодневной клубной траляляйки. Это 2я часть сборника. Смотрите, слушайте и наслаждайтесь. Все лучшее для вас. ALEXnROCK Ремастеринг видео, звук заменил на CD Читается любым бытовым плеером Треклис ...

27
дек
2017

VA - Best Pop Hits 2000-2016 от ALEXnROCK (часть 2) [2017, Pop, DVDRip] 720p

Формат: DVDRip, MKV, H.264, PCM
Песня: VA - Best Pop Hits 2000-2016 от ALEXnROCK (часть 2) DVDRip
Жанр: Pop
Продолжительность: 03:45:12
Год выпуска: 2017
Видео: 1280x612-720 (16x9) 1280x864-904(4x3) 25 fps, H.264 (High@L4) 3400kbps 0.87-0.125 bit.pixel
Аудио: 48000Hz, PCM, 2 ch, 1536kbps
Доп. информация: В сборник вошли клипы только с понастоящему качественной поп музыкой с 2000 по 2016г. Тут нет однодневной клубной траляляйки. Это 2я часть сборника. Смотрите, слушайте и наслаждайтесь. Все лучшее для вас. ALEXnROCK Ремастеринг видео, звук заменил на CD Треклист 000 Intro 061 Nicole Kidman & ...

24
авг
2017

VA - Best Pop Hits 2000-2016 from ALEXnROCK часть 1 [2017, Pop, DVDRip, 720p]

Формат: DVDRip, MKV, H.264, PCM
Песня: VA - Best Pop Hits 2000-2016 from ALEXnROCK часть 1
Жанр: Pop
Продолжительность: 03:47:37
Год выпуска: 2017
Видео: 1280x612-720 (16x9) 1280x864-896(4x3) 25 fps (High@L4) 3400kbps 0.87-0.129 bit.pixel
Аудио: 48000Hz, PCM, 2 ch, 1536kbps
Доп. информация: В сборник вошли клипы только с понастоящему качественной поп музыкой с 2000 по 2016г. Тут нет однодневной клубной траляляйки. Это 1 часть сборника. Смотрите, слушайте и наслаждайтесь. Все лучшее для вас. ALEXnROCK Сделал ремастеринг видео, звук заменил Раскрыть000 Intro 001 Sugababes - Push The Button 00 ...

23
авг
2017

VA - Rock Metal Collection от ALEXnROCK часть 3 [2017, Rock, Metal, MP3]

Формат: MP3, tracks, 320kbps
Год выпуска: 2017
Страна: USA, Россия
Жанр: Rock, Metal
Продолжительность: 04:36:12
Описание: Раскрыть 121 Joe Satriani - Summer Song 122 Ozzy Osbourne - Zombie Stomp 123 3 Doors Down - Kryptonite 124 Aerosmith - Cryin' 125 Megadeth - 1 Into The Lungs Of Hell 126 Megadeth - 2 Set The World Afire 127 Firehouse - Talk Of The Town 128 Godsmack - Speak 129 Motley Crue - Without You 130 Steelheart - Sticky Side Up 131 Suicidal Tendencies - Go'n Breakdown 132 Thunder - She's So fine 133 Bad Company - If You Needed Somebody 134 Pantera - 5 Minutes Alone 135 Alice Cooper ...

09
июн
2018

VA - Rock Ballads Collection от ALEXnROCK часть 3 [2018, Rock, Metal, MP3]

Формат: MP3, tracks, 320kbps
Год выпуска: 2018
Страна: All worlds
Жанр: Rock, Metal
Продолжительность: 03:12:14
Описание: Треклист 081 The Cult - Sweet Salvation 082 Scorpions - Always Somewhere 083 Bryan Adams - Thought I'd Died And Gone To Heaven 084 Coverdale & Page - Take Me For A Little While 085 Jon Bon Jovi - Destination Anywhere 086 Cinderella - Nobody's Fool 087 3 Doors Down - Let Me Go 088 Bad Company - If You Needed Somebody 089 Joe Lynn Turner - Got Me Where You Want Me 090 Skid Row - 18 And Life 091 Dire Straits - So Far Away 092 Nickelback - Never Gonna Be Alone 093 Aerosmith - J ...

05
ноя
2018

Сборник - Русский регги от ALEXnROCK часть 1 [2018, Reggae, FLAC]

Формат: FLAC, tracks, Lossless
Год выпуска: 2018
Страна: Россия
Жанр: Регги
Продолжительность: 02:12:11
Описание: Треклист001 Александр Барыкин - Боб Марлей и тётя Варя 002 Dino MC47 - Жара (Feat. Теона Дольникова) 003 Аквариум - Слова Растамана 004 Лада Дэнс - Жить нужно в кайф 2 005 Melange - Орёл 006 Паскаль - Моря не будет 007 Ноггано - Калифорния (ft. Tati) 008 Филипп Киркоров - Посмотри, какое лето 009 Владимир Кузьмин - Я люблю тебя очень 010 Вадим Галыгин и Леприконсы - Только ты 011 Жанна Агузарова - Верю я 012 Александр Барыкин - Звёздный корабль 013 Валерия - Не забудь былые увлеч ...